Ubuntu openmw latest vetsion, naked dark elves

Support for running, installing or compiling OpenMW

Before you submit a bug report for the first time, please read: Bug reporting guidelines
Post Reply
johnnyp1231
Posts: 3
Joined: 22 Apr 2017, 17:02

Ubuntu openmw latest vetsion, naked dark elves

Post by johnnyp1231 » 27 Apr 2017, 14:00

For some reason the dark elves in dungeons and Vivic library are naked. I'm assuming that they​ are supposed to have robes on but nothing is showing. At first I thought it was perhaps a mod Installed but I disabled my mod folder and even with a vanilla installation no robe is displayed. I'm using goty disc isos for installation. Any ideas? I've tried installing new robe textures / meshes to no avail. It's not a huge problem but it's ridiculous when I'm in a dungeon and there is naked de army coming at me.
Last edited by johnnyp1231 on 27 Apr 2017, 22:31, edited 1 time in total.

User avatar
AnyOldName3
Posts: 2107
Joined: 26 Nov 2015, 03:25

Re: Ubuntu openmw latest vetsion, naked dark elf's.

Post by AnyOldName3 » 27 Apr 2017, 14:32

Can you run OpenMW from the terminal and paste its output here?
AnyOldName3, Master of Shadows

jmelesky
Posts: 45
Joined: 02 Mar 2017, 20:52

Re: Ubuntu openmw latest vetsion, naked dark elf's.

Post by jmelesky » 27 Apr 2017, 17:21

johnnyp1231 wrote:It's not a huge problem but it's ridiculous when I'm in a dungeon and there is naked de army coming at me.
Is it all dunmer, or just the "sleepers"? Sleepers are supposed to be naked.

johnnyp1231
Posts: 3
Joined: 22 Apr 2017, 17:02

Re: Ubuntu openmw latest vetsion, naked dark elf's.

Post by johnnyp1231 » 27 Apr 2017, 22:23

Code: Select all

Installing crash catcher
Loading config file: /home/johnnyp/.config/openmw/openmw.cfg... done.
Loading config file: /etc/openmw/openmw.cfg... done.
OpenMW version 0.41.0
Using default (English) font encoding.
Loading settings file: /etc/openmw/settings-default.cfg
Loading settings file: /home/johnnyp/.config/openmw/settings.cfg
Adding BSA archive /home/johnnyp/.local/share/openmw/data/Morrowind.bsa
Adding BSA archive /home/johnnyp/.local/share/openmw/data/Tribunal.bsa
Adding BSA archive /home/johnnyp/.local/share/openmw/data/Bloodmoon.bsa
Adding data directory /home/johnnyp/.local/share/openmw/data
Adding data directory /home/johnnyp/MorrowindMods2
Adding data directory /home/johnnyp/.local/share/openmw/data
Sound output: OpenAL
Sound decoder: FFmpeg
Cannot connect to server socket err = No such file or directory
Cannot connect to server request channel
jack server is not running or cannot be started
JackShmReadWritePtr::~JackShmReadWritePtr - Init not done for 4294967295, skipping unlock
JackShmReadWritePtr::~JackShmReadWritePtr - Init not done for 4294967295, skipping unlock
Enumerated output devices:
  PCM2902 Audio Codec Analog Stereo
Opened "PCM2902 Audio Codec Analog Stereo"
Enumerated HRTF names:
  default-44100.mhr
  default-48000.mhr
  default-44100.mhr #2
  default-48000.mhr #2
Input #0, bink, from 'video\bethesda logo.bik':
  Duration: 00:00:16.00, start: 0.000000, bitrate: 2324 kb/s
    Stream #0:0[0x0]: Video: binkvideo (BIKi / 0x694B4942), yuv420p, 640x480, 30.06 fps, 30.06 tbr, 30.06 tbn, 30.06 tbc
    Stream #0:1[0x0]: Audio: binkaudio_rdft, 44100 Hz, stereo, flt
[binkaudio_rdft @ 0x556033a69c00] Multiple frames in a packet.
Loading content file Morrowind.esm
Loading content file Tribunal.esm
Loading content file Bloodmoon.esm
Loading content file Better_Sounds.esp
Loading content file Fair Magicka Regen 2.0b.esp
Loading content file teleport_ring.omwaddon
Loading content file TLM - AdjMod - Bank 2.2.esp
Loading content file TLM - AdjMod - Gladiator.esp
Loading content file Morrowind Patch v1.6.6_beta.esm
Loading content file redguard_rug.omwaddon
Loading content file sneaktools.omwaddon
Loading content file sneaktools_bethesda.omwaddon
Loading content file sneaktools_rebirth.omwaddon
Loading content file sneaktools_tamriel_rebuilt.omwaddon
Loading content file Tamriel_Data.esm
Loading content file TLM - AdjMod - Marksman 1.43.b2.esp
Loading content file TLM - AdjMod - Siege At Firemoth.esp
Loading content file TLM - AdjMod - Spuzzum's Interior Daylight.esp
Loading content file TLM - Adjust - Ald-Ruhn, The Rat In The Pot.esp
Loading content file TLM - Adjust - Arena (New Lighting).esp
Loading content file TLM - Ambient Light + Fog Update.esp
Loading content file TLM - External Lights Ownership.esp
Loading content file TLM - Light Sources (Clearer Lighting).esp
Loading content file TLM - Light Sources (Lanterns).esp
Loading content file TLM - Light Sources (Natural Water).esp
Loading content file TLM - NPC Light Sources.esp
Loading content file TLM - Sneak Modifiers (Code).esp
Loading content file TLM - Sneak Modifiers (Locations) - Adjust - Gladiator.esp
Loading content file TLM - Sneak Modifiers (Locations).esp
Loading content file TR_Mainland.esm
Loading content file TR_Preview.esp
Loading content file TR_Travels.esp
Loading content file Fair Magicka Regen 2.0b.omwaddon
Playing Music/Special/morrowind title.mp3

johnnyp1231
Posts: 3
Joined: 22 Apr 2017, 17:02

Re: Ubuntu openmw latest vetsion, naked dark elf's.

Post by johnnyp1231 » 27 Apr 2017, 22:30

jmelesky wrote:
johnnyp1231 wrote:It's not a huge problem but it's ridiculous when I'm in a dungeon and there is naked de army coming at me.
Is it all dunmer, or just the "sleepers"? Sleepers are supposed to be naked.
Its not just sleepers, its the librarians in vivic too. also in a few dungeons ive noticed them being naked. Not all dark elves are naked just a few here and there, I'm thinking it must be a missing file or something but i can't understand why its happening even without mods enabled.

Post Reply